สมัครสมาชิกฟรี


เข้าสู่ระบบ


[COLO] [ใหม่ เล็กชัดแจ่ม 2 Discs ~] เดี่ยวไมโครโฟน ชุด 11 : STAND UP COMEDY 11 -[Encode.H.264.CtHts]-[เสียงไทย 5.1]-[ บรรยาย อังกฤษ ]-[ Mkv Rip From DVD Master ]


ในยามที่บ้านเมืองเกิดวิกฤต เศรษฐกิจมีผลกับดัชนีความสุขของผู้คน ชาติต้องการใครสักคนมาเยียวยา

พ่อแม่พี่น้องประชาชนที่เคารพ ผู้ชายคนนี้ถูกโหวตให้เป็นนายกทุกโพลมาหลายต่อหลายสมัย

แต่เขาไม่ยอมมารับตำแหน่งเสียที่ 2 ปีที่ผ่านมา เขาไม่ได้มีส่วนร่วมกับการบริหารอะไรเลยแต่เวลานี้

เขาจะกลับมาทำตามสัญญา ขอเวลาอีกไม่นานเดี่ยว 11 อุดม แต้อาสาเดินข้างเคียง

เคียงข้างฝ่าวิกฤติความเครียดไปกับท่าน!!!

Quote:

Disc-01

Format                                   : Matroska

Format version                           : Version 2

File size                                : 1.72 GiB

Duration                                 : 1h 36mn

Overall bit rate                         : 2 571 Kbps

Video

ID                                       : 1

Format                                   : AVC

Format/Info                              : Advanced Video Codec

Format profile                           : High@L3.0

Format settings, CABAC                   : Yes

Format settings, ReFrames                : 4 frames

Codec ID                                 : V_MPEG4/ISO/AVC

Duration                                 : 1h 36mn

Bit rate                                 : 2 111 Kbps

Width                                    : 720 pixels

Height                                   : 416 pixels

Display aspect ratio                     : 1.731

Frame rate mode                          : Constant

Frame rate                               : 25.000 fps

Color space                              : YUV

Chroma subsampling                       : 4:2:0

Bit depth                                : 8 bits

Scan type                                : Progressive

Bits/(Pixel*Frame)                       : 0.282

Stream size                              : 1.39 GiB (81%)

Writing library                          : x264 core 130 r2273 b3065e6

Encoding settings                        : cabac=1 / ref=3 / deblock=1:0:0 / analyse=0x3:0x113 / me=umh / subme=9 / psy=1 / psy_rd=1.00:0.00 / mixed_ref=1 / me_range=16 / chroma_me=1 / trellis=1 / 8x8dct=1 / cqm=0 / deadzone=21,11 / fast_pskip=1 / chroma_qp_offset=-2 / threads=12 / lookahead_threads=1 / sliced_threads=0 / nr=0 / decimate=1 / interlaced=0 / bluray_compat=0 / constrained_intra=0 / bframes=3 / b_pyramid=2 / b_adapt=1 / b_bias=0 / direct=1 / weightb=1 / open_gop=0 / weightp=2 / keyint=250 / keyint_min=25 / scenecut=40 / intra_refresh=0 / rc_lookahead=40 / rc=2pass / mbtree=1 / bitrate=2111 / ratetol=1.0 / qcomp=0.60 / qpmin=0 / qpmax=69 / qpstep=4 / cplxblur=20.0 / qblur=0.5 / ip_ratio=1.40 / aq=1:1.00

Audio

ID                                       : 2

Format                                   : AC-3

Format/Info                              : Audio Coding 3

Mode extension                           : CM (complete main)

Format settings, Endianness              : Big

Codec ID                                 : A_AC3

Duration                                 : 1h 36mn

Bit rate mode                            : Constant

Bit rate                                 : 448 Kbps

Channel(s)                               : 6 channels

Channel positions                        : Front: L C R, Side: L R, LFE

Sampling rate                            : 48.0 KHz

Bit depth                                : 16 bits

Compression mode                         : Lossy

Stream size                              : 308 MiB (17%)

Language                                 : Thai

Default                                  : Yes

Forced                                   : No

Text

ID                                       : 3

Format                                   : VobSub

Codec ID                                 : S_VOBSUB

Codec ID/Info                            : The same subtitle format used on DVDs

Language                                 : English

Default                                  : No

Forced                                   : No

Menu

00:00:00.000                             : Chapter 1

00:04:05.360                             : Chapter 2

00:06:36.160                             : Chapter 3

00:09:43.960                             : Chapter 4

00:16:53.400                             : Chapter 5

00:27:39.400                             : Chapter 6

00:33:25.960                             : Chapter 7

00:51:23.880                             : Chapter 8

01:27:21.600                             : Chapter 9



โหลดฟรี100%
หมวดหมู่MV/Live (ไทย)
ขนาด3.48 GB (3,735,357,663 bytes)
อัพโหลดเมื่อ2015-11-26 11:56:48 (5 ปี)
โหลดเสร็จ663 ครั้ง
Tag คอนเสิร์ต
แบ่งปันโดยperose
จำนวนไฟล์
[ดูรายการเต็ม]
โหลด/ปล่อย
[ดูรายการเต็ม]
6 ปล่อย, 1 โหลด = 7 เพียร์