สมัครสมาชิกฟรี


เข้าสู่ระบบ


(✩ฝรั่ง✺ใหม่✺พากย์ไทยมาสเตอร์✩)-Three Identical Strangers [2018] แฝด 3-•สารคดีเรื่องเยี่ยมจาก CNN-[Super HQ]-[☼1080p.BluRay.x264♓☼]•[♪Sound Eng DTS 5.1/Thai AC3 5.1:MASTER✾Modifide♪]•[SUB:Eng]



 

 









 *** Three Identical Strangers [2018] แฝด 3 ***

• สะเทือนใจ ชีวิตแฝดสามที่ถูกจับแยกตั้งแต่เกิดเพื่องานวิจัย – คนหนึ่งฆ่าตัวตาย

• วันที่ 2 ก.พ. เว็บไซต์ ดิ อินดีเพนเดนต์ รายงานถึงงานวิจัยอันอื้อฉาวที่นักจิตวิทยาวิเคราะห์ศึกษาหัวข้อธรรมชาติกับการเลี้ยงดูผ่านการเฝ้ามองแฝดสามเพศชายที่ถูกจับแยกกันเลี้ยงตั้งแต่แบเบาะ เติบโตมาในครอบครัวต่างกัน โดยที่ทั้งสามไม่รู้ว่าตนเองมีพี่น้องแฝด

เรื่องราวดังกล่าวนำเสนอผ่านหนังสารคดี Three Identical Strangers สร้างโดย ทิม วอร์ดเดิล ฉายเมื่อเดือนมกราคมปีนี้ คว้ารางวัลชมเชยพิเศษ Special Jury Prize ในเทศกาลหนังซันแดนซ์ ที่สหรัฐอเมริกา

••• ไฟล์ 1080p คุณภาพสูง! •••

เสียงไทย From Master.  




 

  Three Identical Strangers (2018)

PG-13 | 1h 36min | Documentary, Biography, Drama | 30 November 2018 (UK)

Director: Tim Wardle

Stars: Robert Shafran, Michael Domnitz, Howard Schneider

ในปีพ. ศ. 2523 นิวยอร์กมีแฝดสามคนมาพบกัน พวกเขาถูกพรากจากกันตั้งแต่แรกเกิด อาจเป็นไปได้ว่าการแยกจากกันของพวกเขาเป็นไปเพื่อการค้นคว้า มันจึงกลายเป็นความลับที่แปลกประหลาดและน่ากลัวเป็นภาพยนตร์เล่าเรื่องของปี 2018 ซึ่งกำกับโดย Tim Wardle และมี Edward Galland, David Kellman  แฝดทั้งสามเกิดในปี 1961 แยกกันตั้งแต่ยังเป็นทารกโดยถูกมอบให้ครอบครัวที่แตกต่างกันและต่างไม่รู้จักกัน รายงานการวิจัยเรื่อง “ธรรมชาติและการเลี้ยงดูเด็ก” เป็นงานวิจัยทางวิทยาศาสตร์ที่ไม่ได้รับการเปิดเผยเพื่อติดตามความก้าวหน้าของพี่น้องและน้องสาวที่มีความแตกต่างทางพันธุกรรมในสถานการณ์ต่าง ๆ  สามพี่น้องพบกันเมื่ออายุได้ 19 ปี  


   


 Three.Identical.Strangers.2018.1080p.BluRay. (Super HQ).mkv

Format                      : Matroska

Format version              : Version 4

File size                   : 3.58 GiB

Duration                    : 1 h 36 min

Overall bit rate            : 5 305 kb/s

Video

ID                          : 1

Format                      : AVC

Format/Info                 : Advanced Video Codec

Format profile              : High@L4.1

Format settings             : CABAC / 4 Ref Frames

Format settings, CABAC      : Yes

Format settings, ReFrames   : 4 frames

Codec ID                    : V_MPEG4/ISO/AVC

Duration                    : 1 h 36 min

Bit rate                    : 2 500 kb/s

Width                       : 1 920 pixels

Height                      : 1 040 pixels

Display aspect ratio        : 1.85:1

Frame rate mode             : Constant

Frame rate                  : 23.976 (23976/1000) FPS

Color space                 : YUV

Chroma subsampling          : 4:2:0

Bit depth                   : 8 bits

Scan type                   : Progressive

Bits/(Pixel*Frame)          : 0.052

Stream size                 : 1.68 GiB (47%)

Title                       : Three.Identical.Strangers.2018.1080p.BluRay. (Super HQ)

Writing library             : x264 core 152 r2851M ba24899

Language                    : English

Default                     : Yes

Forced                      : No

Audio #1

ID                          : 2

Format                      : AC-3

Format/Info                 : Audio Coding 3

Commercial name             : Dolby Digital

Codec ID                    : A_AC3

Duration                    : 1 h 36 min

Bit rate mode               : Constant

Bit rate                    : 160 kb/s

Channel(s)                  : 6 channels

Channel layout              : L R C LFE Ls Rs

Sampling rate               : 44.1 kHz

Frame rate                  : 28.711 FPS (1536 SPF)

Bit depth                   : 16 bits

Compression mode            : Lossy

Delay relative to video     : -43 ms

Stream size                 : 111 MiB (3%)

Title                       : 5.1 AC3-Thai 160k 110m

Language                    : Thai

Service kind                : Complete Main

Default                     : Yes

Forced                      : No

Audio #2

ID                          : 3

Format                      : DTS

Format/Info                 : Digital Theater Systems

Codec ID                    : A_DTS

Duration                    : 1 h 36 min

Bit rate mode               : Constant

Bit rate                    : 2 646 kb/s

Channel(s)                  : 6 channels

Channel layout              : C L R Ls Rs LFE

Sampling rate               : 32.0 kHz

Frame rate                  : 31.250 FPS (1024 SPF)

Bit depth                   : 16 bits

Compression mode            : Lossy

Delay relative to video     : -43 ms

Stream size                 : 1.78 GiB (50%)

Title                       : dts 5.1-Eng 32000-1.78g

Language                    : English

Default                     : No

Forced                      : No

Text #1

ID                          : 4

Format                      : UTF-8

Codec ID                    : S_TEXT/UTF8

Codec ID/Info               : UTF-8 Plain Text

Duration                    : 1 h 32 min

Bit rate                    : 81 b/s

Count of elements           : 1471

Stream size                 : 55.5 KiB (0%)

Title                       : SRT

Language                    : English

Default                     : Yes

Forced                      : No

Text #2

ID                          : 5

Format                      : UTF-8

Codec ID                    : S_TEXT/UTF8

Codec ID/Info               : UTF-8 Plain Text

Duration                    : 1 h 32 min

Bit rate                    : 84 b/s

Count of elements           : 1500

Stream size                 : 57.5 KiB (0%)

Title                       : SRT-Hearing Impaired=ผู้บกพร่องทางเสียง

Language                    : English

Default                     : No

Forced                      : No  


โหลดฟรี100%
หมวดหมู่สารคดี
ขนาด3.58 GB (3,842,011,755 bytes)
อัพโหลดเมื่อ2019-06-08 09:59:21 (1 ปี)
โหลดเสร็จ87 ครั้ง
Tag สารคดี
แบ่งปันโดยCUP
จำนวนไฟล์
[ดูรายการเต็ม]
โหลด/ปล่อย
[ดูรายการเต็ม]
1 ปล่อย, 9 โหลด = 10 เพียร์