สมัครสมาชิกฟรี


เข้าสู่ระบบ


Frozen Planet The Complete Series (อัศจรรย์โลกน้ำแข็ง) 2011 720p HQ Blu-ray.AC-3 [พากย์:ไทย-อังกฤษ]+[SUB:ไทย-อังกฤษ] rip from master [พากย์ไทย]

[สารคดี]-[Mini-HD] Frozen Planet The Complete Series (อัศจรรย์โลกน้ำแข็ง) 2011 720p HQ Blu-ray.AC-3 [พากย์:ไทย-อังกฤษ]+[SUB:ไทย-อังกฤษ] rip from master [พากย์ไทย]



Frozen Planet The Complete Series (อัศจรรย์โลกน้ำแข็ง) 2011

Synopsis:

จากทีมผู้สร้างที่ชนะรางวัลเอ็มมี่ ผู้อยู่เบื้องหลัง Planet Earth และ The Blue Planet นี้เป็นซีรี่ส์แบบฉบับดั้งเดิมจาก BBC "Frozen Planet" อัศจรรย์โลกน้ำ

แข็ง บรรยายโดยนักธรรมชาติวิทยาที่มีชื่อเสียงระดับโลก Sir David Attenborough

     ขั้วโลกเหนือและขั้วโลกใต้ยังคงเป็นป่าที่กว้างใหญ่ไ พศาลที่ยิ่งใหญ่ที่สุด บนโลก ขนาดและความงามของทิวทัศน์และอำนาจแท้จริงขององค์ประ กอบที่มีความได้เปรียบ

กว่าทุกที่อื่นในบนโลกของเรา โดยใช้เทคโนโลยีกล้องล่าสุด อัศจรรย์โลกน้ำแข็งจับภาพไปในจุดที่ยังไม่ได้รับการถ ่ายทอดทั้งด้านบนและ ด้านล่างน้ำแข็ง รวมทั้งก่อนหน้านี้ที่

ยังไม่เคยมีการถ่ายทำ ทั้งพฤติกรรมของสัตว์และความผันผวนตามธรรมชาติดังต่อ ไปนี้แบบพิเศษ ที่มาพร้อมกับการเปลี่ยนแปลงของฤดูกาล อัศจรรย์โลกน้ำแข็งกำลังวาดภาพ

ที่ใช้ทุกลมหายใจเข้าอ อกของคุณออกไปในช่วง เวลาเหล่านี้ที่ส่งผลกระทบต่อภูมิภาคของโลกของเราเร็ ว ๆ นี้ที่อาจจะเปลี่ยนแปลงไปตลอดกาล

Format                           : Matroska

File size                        : 1.79 GiB

Duration                         : 58mn 45s  x 8 ตอน

Overall bit rate                 : 4 352 Kbps

Movie name                       : 00000-01

Encoded date                     : UTC 2013-08-10 11:04:19

Writing application              : mkvmerge v3.4.0 ( Rapunzel ) built on May 15 2010 09:38:20

Writing library                  : libebml v0.8.0 + libmatroska v0.9.0

Video

ID                               : 1

Format                           : AVC

Format/Info                      : Advanced Video Codec

Format profile                   : High@L5.1

Format settings, CABAC           : Yes

Format settings, ReFrames        : 8 frames

Codec ID                         : V_MPEG4/ISO/AVC

Duration                         : 58mn 45s

Bit rate mode                    : Variable

Bit rate                         : 3 573 Kbps

Maximum bit rate                 : 300 Mbps

Width                            : 1 280 pixels

Height                           : 720 pixels

Display aspect ratio             : 16:9

Frame rate                       : 25.000 fps

Color space                      : YUV

Chroma subsampling               : 4:2:0

Bit depth                        : 8 bits

Scan type                        : Progressive

Bits/(Pixel*Frame)               : 0.155

Stream size                      : 1.44 GiB (80%)

Title                            : [Mini-hidef] Frozen Planet The Complete Series (อัศจรรย์โลกน้ำแข็ง) 2011 720p HQ-CtHts-01

Writing library                  : x264 core 120 r2120 0c7dab9

Encoding settings                : cabac=1 / ref=8 / deblock=1:0:0 / analyse=0x3:0x133 / me=umh / subme=10 / psy=1 / psy_rd=1.00:0.00 / mixed_ref=1 / me_range=24 / chroma_me=1 / trellis=2 / 8x8dct=1 / cqm=0 / deadzone=21,11 / fast_pskip=1 / chroma_qp_offset=-2 / threads=9 / sliced_threads=0 / nr=0 / decimate=1 / interlaced=0 / bluray_compat=0 / constrained_intra=0 / bframes=3 / b_pyramid=0 / b_adapt=2 / b_bias=0 / direct=3 / weightb=1 / open_gop=0 / weightp=2 / keyint=250 / keyint_min=25 / scenecut=40 / intra_refresh=0 / rc_lookahead=60 / rc=2pass / mbtree=1 / bitrate=3573 / ratetol=1.0 / qcomp=0.60 / qpmin=0 / qpmax=69 / qpstep=4 / cplxblur=20.0 / qblur=0.5 / vbv_maxrate=300000 / vbv_bufsize=300000 / nal_hrd=vbr / ip_ratio=1.40 / aq=1:1.00

Language                         : English

Audio #1

ID                               : 2

Format                           : AC-3

Format/Info                      : Audio Coding 3

Mode extension                   : CM (complete main)

Codec ID                         : A_AC3

Duration                         : 58mn 45s

Bit rate mode                    : Constant

Bit rate                         : 384 Kbps

Channel(s)                       : 6 channels

Channel positions                : Front: L C R, Side: L R, LFE

Sampling rate                    : 48.0 KHz

Bit depth                        : 16 bits

Compression mode                 : Lossy

Stream size                      : 161 MiB (9%)

Title                            : ac3 br-master

Language                         : Thai

Audio #2

ID                               : 3

Format                           : AC-3

Format/Info                      : Audio Coding 3

Mode extension                   : CM (complete main)

Codec ID                         : A_AC3

Duration                         : 58mn 45s

Bit rate mode                    : Constant

Bit rate                         : 384 Kbps

Channel(s)                       : 6 channels

Channel positions                : Front: L C R, Side: L R, LFE

Sampling rate                    : 48.0 KHz

Bit depth                        : 16 bits

Compression mode                 : Lossy

Stream size                      : 161 MiB (9%)

Title                            : ac3 br-master

Language                         : English

Text #1

ID                               : 4

Format                           : VobSub

Muxing mode                      : zlib

Codec ID                         : S_VOBSUB

Codec ID/Info                    : The same subtitle format used on DVDs

Title                            : br-master

Language                         : Thai

Text #2

ID                               : 5

Format                           : VobSub

Muxing mode                      : zlib

Codec ID                         : S_VOBSUB

Codec ID/Info                    : The same subtitle format used on DVDs

Title                            : br-master

Language                         : English







โหลดฟรี100%
หมวดหมู่สารคดี
ขนาด12.47 GB (13,390,205,495 bytes)
อัพโหลดเมื่อ2017-09-04 08:46:52 (3 ปี)
โหลดเสร็จ805 ครั้ง
Tag สารคดี
แบ่งปันโดยFreedom
จำนวนไฟล์
[ดูรายการเต็ม]
โหลด/ปล่อย
[ดูรายการเต็ม]
1 ปล่อย, 1 โหลด = 2 เพียร์