สมัครสมาชิกฟรี


เข้าสู่ระบบ


[ใหม่] Pokemon The Movie 21 Minna no Monogatari The Power of Us โปเกมอน เดอะ มูฟวี เรื่องราวแห่งผองเรา-WEB-DL.H.264.1080p (พากย์ไทยเท่านั้น)










ณ เมืองฟูระซิตี้ เมืองชายทะเลที่สวยงามแห่งหนึ่ง สิ่งที่ชาวเมืองกระทำเหมือนกันในทุกๆ ปี ก็คือ การรวมตัวกันเพื่อเฉลิมฉลองเทศกาลแห่งสายลมให้แก่ โปเกมอนในตำนาน ลูเกีย (Lugia) ซึ่งเคยช่วยเมืองนี้ไว้ให้พ้นจากความหายนะเมื่ออดีต แต่ขณะที่งานเทศกาลกำลังดำเนินไปอย่าง สนุกสนาน ก็มีบางสิ่งที่เลวร้ายเกิดขึ้น!

ซาโตชิและพิคาชู ซึ่งเดินทางไปยังเมืองแห่งนั้น จะสามารถรวมพลังกับเหล่าเทรนเนอร์ และโปเกมอน เพื่อช่วยเมืองนี้เอาไว้จากภยันตรายในครั้งนี้ได้หรือไม่?





Format                      : Matroska

Format version              : Version 4

File size                   : 2.66 GiB

Duration                    : 1 h 37 min

Overall bit rate            : 3 905 kb/s

Encoded date                : UTC 2019-10-09 02:51:01

Writing application         : mkvmerge v9.9.0 ('Pick Up') 64bit

Writing library             : libebml v1.3.4 + libmatroska v1.4.5

Video

ID                          : 2

Format                      : AVC

Format/Info                 : Advanced Video Codec

Format profile              : Main@L4

Format settings             : CABAC / 4 Ref Frames

Format settings, CABAC      : Yes

Format settings, ReFrames   : 4 frames

Format settings, GOP        : M=3, N=50

Codec ID                    : V_MPEG4/ISO/AVC

Duration                    : 1 h 37 min

Bit rate                    : 3 583 kb/s

Width                       : 1 920 pixels

Height                      : 1 080 pixels

Display aspect ratio        : 16:9

Frame rate mode             : Constant

Frame rate                  : 25.000 FPS

Color space                 : YUV

Chroma subsampling          : 4:2:0

Bit depth                   : 8 bits

Scan type                   : Progressive

Bits/(Pixel*Frame)          : 0.069

Stream size                 : 2.44 GiB (92%)

Default                     : Yes

Forced                      : No

Audio

ID                          : 1

Format                      : AC-3

Format/Info                 : Audio Coding 3

Commercial name             : Dolby Digital

Codec ID                    : A_AC3

Duration                    : 1 h 37 min

Bit rate mode               : Constant

Bit rate                    : 320 kb/s

Channel(s)                  : 2 channels

Channel layout              : L R

Sampling rate               : 48.0 kHz

Frame rate                  : 31.250 FPS (1536 SPF)

Bit depth                   : 16 bits

Compression mode            : Lossy

Delay relative to video     : 16 ms

Stream size                 : 223 MiB (8%)

Language                    : Thai

Service kind                : Complete Main

Default                     : Yes

Forced                      : No
โหลดฟรี100%
หมวดหมู่การ์ตูน
ขนาด2.66 GB (2,853,920,756 bytes)
อัพโหลดเมื่อ2019-10-23 11:55:04 (7 เดือน)
โหลดเสร็จ1,858 ครั้ง
Tag พากษ์ไทย
แบ่งปันโดยworrachai
จำนวนไฟล์
[ดูรายการเต็ม]
โหลด/ปล่อย
[ดูรายการเต็ม]
2 ปล่อย, 0 โหลด = 2 เพียร์